#TITLE:Don't Forget Me;
#SUBTITLE:Expi3nze;
#ARTIST:Girls Day;
#TITLETRANSLIT:;
#SUBTITLETRANSLIT:;
#ARTISTTRANSLIT:;
#CREDIT:;
#BANNER:bn.png;
#BACKGROUND:bg.png;
#LYRICSPATH:;
#CDTITLE:cdtitle.png;
#MUSIC:Don't Forget Me.mp3;
#OFFSET:-0.020;
#SAMPLESTART:95.393;
#SAMPLELENGTH:21.492;
#SELECTABLE:YES;
#BPMS:0.000=134.002,1.000=67.001,2.000=66.999,3.000=67.001,4.000=66.999,5.000=67.001,6.000=66.999,7.000=134.002,7.500=33.500,7.750=67.001,8.000=134.002,10.000=67.001,10.333=268.004,11.000=67.001,11.333=268.004,12.000=67.001,12.333=268.004,13.000=67.001,13.333=268.004,14.000=67.001,14.333=268.004,15.000=67.001,15.333=268.004,16.000=67.001,16.333=268.004,17.000=67.001,17.333=268.004,18.000=67.001,18.333=268.004,19.000=67.001,19.333=268.004,20.000=67.001,20.333=268.004,21.000=67.001,21.333=268.004,22.000=67.001,22.333=268.004,23.000=67.001,23.333=268.004,24.000=67.001,24.333=268.004,25.000=134.002,26.000=67.001,27.000=66.999,28.000=67.001,29.000=66.999,30.000=67.001,31.000=66.999,32.000=67.001,33.000=66.999,34.000=67.001,35.000=66.999,36.000=67.001,37.000=66.999,38.000=67.001,39.000=66.999,41.000=67.001,42.000=134.002,45.000=67.001,45.333=268.004,46.000=134.002,49.000=133.995,50.000=134.002,53.000=133.995,54.000=134.002,57.000=133.995,58.000=134.002,60.000=133.995,61.000=134.002,64.000=133.995,65.000=134.002,68.000=133.995,69.000=134.002,72.000=133.995,73.000=134.002,75.000=133.995,76.000=67.001,76.333=268.004,77.000=67.001,77.333=268.004,78.000=134.002,80.500=268.031,81.000=67.001,81.250=134.006,82.000=134.002,83.000=133.995,84.000=67.001,84.333=268.004,85.000=67.001,85.333=268.004,86.000=134.002,87.000=67.001,87.333=268.004,88.000=134.002,89.000=67.001,89.333=268.004,90.000=134.002,91.000=67.001,91.333=268.004,92.000=67.001,92.333=268.004,93.000=67.001,93.333=268.004,94.000=134.002,97.000=133.995,98.000=134.002,100.000=67.001,100.333=268.004,101.000=67.001,101.333=268.004,102.000=134.002,103.000=67.001,103.333=268.004,104.000=134.002,105.000=67.001,105.333=268.004,106.000=134.002,107.000=67.001,107.333=268.004,108.000=67.001,108.333=268.004,109.000=67.001,109.333=268.004,110.000=134.002,113.000=133.995,114.000=134.002,117.000=133.995,118.000=134.002,121.000=133.995,122.000=134.002,124.000=133.995,125.000=134.002,128.000=133.995,129.000=134.002,132.000=133.995,133.000=134.002,136.000=133.995,137.000=134.002,139.000=133.995,140.000=134.002,143.000=133.995,144.000=134.002,146.000=67.001,147.000=66.999,148.000=67.001,149.000=66.999,150.000=67.001,151.000=66.999,152.000=67.001,153.000=66.999,154.000=134.002,157.000=133.995,158.000=134.002,161.000=133.995,162.000=134.002,165.000=133.995,166.000=134.002,168.000=133.995,169.000=134.002,172.000=133.995,173.000=134.002,176.000=133.995,177.000=134.002,180.000=67.001,180.167=268.004,180.500=67.001,180.667=268.004,181.000=134.002,184.000=133.995,185.000=134.002,188.000=133.995,189.000=134.002,192.000=133.995,193.000=134.002,195.000=133.995,196.000=134.002,199.000=133.995,200.000=134.002,203.000=133.995,204.000=134.002,207.000=133.995,208.000=134.002,210.000=133.995,211.000=134.002,214.000=133.995,215.000=134.002,217.500=268.031,218.000=67.001,218.250=134.006,219.000=134.002,220.000=67.001,220.333=268.004,221.000=67.001,221.333=268.004,222.000=134.002,223.000=67.001,223.333=268.004,224.000=134.002,225.000=67.001,225.333=268.004,226.000=134.002,227.000=67.001,227.333=268.004,228.000=67.001,228.333=268.004,229.000=67.001,229.333=268.004,230.000=134.002,233.000=133.995,234.000=134.002,236.000=67.001,236.333=268.004,237.000=67.001,237.333=268.004,238.000=134.002,239.000=67.001,239.333=268.004,240.000=134.002,241.000=67.001,241.333=268.004,242.000=134.002,243.000=67.001,243.333=268.004,244.000=67.001,244.333=268.004,245.000=67.001,245.333=268.004,246.000=134.002,249.000=133.995,250.000=134.002,253.000=133.995,254.000=134.002,257.000=133.995,258.000=134.002,260.000=133.995,261.000=134.002,264.000=133.995,265.000=134.002,267.000=268.004,271.000=134.002,274.000=133.995,275.000=134.002;
#STOPS:;
#BGCHANGES:;
// cache tags:
#FIRSTBEAT:1.000;
#LASTBEAT:269.000;
#SONGFILENAME:Songs/SDO/Don't Forget Me (Girls Day)/Don't Forget Me.sm;
#HASMUSIC:1;
#HASBANNER:1;
#MUSICLENGTH:136.675;
// end cache tags

//---------------dance-single - ----------------
#NOTES:
     dance-single:
     :
     Hard:
     14:
     0.825,0.812,1.000,1.000,0.205,444.000,184.000,148.000,0.000,126.000:
0000
0000
0000
0000
0100
0010
0100
0001
0010
0100
1000
0010
0001
1000
0100
0010
,
0001
0100
0010
1000
0001
0010
0100
1000
0001
0010
0100
1000
0011
0000
0000
0000
,
0010
0000
0010
1000
0101
0000
0101
0000
0102
0000
0000
0000
1123
0000
0000
0000
,
2030
3211
0320
1132
,
2003
3211
0302
2113
,
3200
1321
2030
3211
,
0302
0000
0000
0000
0203
0000
0000
0000
0301
0010
1000
0100
0010
0000
1000
0100
,
0001
0010
0100
1000
0010
0000
0000
0110
1100
0001
0010
0100
1000
0000
0001
0100
,
0011
1000
0100
1000
0011
0000
1000
0000
0010
0100
1000
0010
0100
0000
0001
0100
,
1010
0100
0001
0010
0100
0000
0000
0110
0011
1000
0100
0010
0001
0000
1000
0010
,
0101
0010
1000
0010
2000
0000
3020
0000
2230
0000
0000
0000
0000
0000
0000
0000
,
0000
0000
0320
0000
3131
0101
1010
1010
,
2010
0000
3011
2000
0001
3001
0101
0200
,
0000
0301
0101
0002
0000
0103
0101
0200
,
0001
0301
0101
0200
0000
0000
0310
0010
,
1000
0010
1010
0000
1010
1010
0101
0101
,
0102
0000
1103
0002
0000
1103
1100
0200
,
0001
0301
0101
0200
0000
0301
0101
0200
,
0000
0301
0101
0002
0000
0000
0103
0200
,
0020
0000
1331
0000
1010
1010
1010
0101
,
0101
0111
0000
0111
0000
0100
0100
0001
,
2200
0000
3322
0000
1133
1100
2200
0000
,
3311
0011
0022
0000
1133
1100
2200
0000
,
3322
0000
2233
0000
3311
0011
1000
0011
,
0011
1001
1001
1010
1010
1000
0010
0110
,
0220
0000
2332
0000
3113
0110
0220
0000
,
1331
1001
2002
0000
3113
0110
0220
0000
,
2332
0000
0000
0000
3223
0000
0000
0000
1330
0000
1000
0000
1000
0100
0010
1000
,
0100
0000
1000
0000
0010
0001
0010
0001
2200
0000
0010
0000
0010
0000
0010
0000
,
0301
0010
0010
0200
3020
0001
0301
0102
,
0000
1003
1000
2000
0230
3010
0010
0020
,
0000
1030
0001
2000
0302
3010
0010
0020
,
2000
0230
3320
0000
2233
0010
0010
0301
,
0100
0010
0010
0020
3200
1030
1000
2000
,
0000
3001
0001
0002
2300
0103
0001
0200
,
0000
0301
0100
0002
3200
1003
1000
2000
,
0001
0000
0000
0000
3001
0000
0000
0000
0311
1000
0011
1000
0000
0010
0101
0010
,
0000
1000
0010
1100
0000
1001
0010
0100
0000
1000
1100
0001
0000
0100
1010
0100
,
0001
0000
0000
0000
0000
0000
0100
0001
2110
0000
0000
0000
0100
0000
0101
0000
,
3102
0000
1010
1010
1023
0000
1000
1001
,
1032
0000
2000
0200
3013
0000
0011
0000
,
0011
0312
2013
0011
,
0011
0000
0011
0000
3012
0010
1010
0010
,
1010
1010
1000
0010
2010
0010
0010
0010
,
0010
0100
0010
0100
0010
0100
0010
0100
3013
0000
0000
0000
0000
0000
0000
0000
,
0000
1110
1110
0000
0012
1000
1010
1010
,
2010
0000
3010
2010
0000
3010
1013
0020
,
0000
1030
1010
0020
0000
1030
1010
0020
,
1000
1030
1010
0020
0000
0000
1030
1000
,
0010
1000
1010
0000
1010
1010
0101
0101
,
0102
0000
1103
0002
0000
1103
1100
2000
,
0001
3001
1001
2000
0000
3001
1001
2000
,
0000
3001
1001
0002
0000
0000
1003
2000
,
0200
0000
3311
0000
0010
0010
1000
0001
,
0100
0100
0000
0111
0000
0100
0100
0001
,
2200
0000
3322
0000
1133
1100
2200
0000
,
3311
0011
0022
0000
1133
1100
2200
0000
,
3322
0000
2233
0000
3311
0011
1000
0011
,
0011
1001
1001
1010
1010
1000
0010
0110
,
0220
0000
2332
0000
3113
0110
0220
0000
,
1331
1001
2002
0000
3113
0110
0220
0000
,
2332
3223
2332
3200
,
0323
0032
1103
1100
,
1100
0000
0101
0101
0000
0100
0110
0000
,
0110
0110
0200
0000
,
0000
0000
0020
0000
,
0000
0000
0000
0000
,
0000
0330
0000
0000
,
0000
0000
0000
0000
,
0000
0000
0000
0000
,
0000
0000
0000
0000
,
0000
0000
0000
0000
,
0000
0000
0000
0000
,
0000
0000
0000
0000
,
0000
0000
0000
0000
,
0000
0000
0000
0000
,
0000
0000
0000
0000
,
0000
0000
0000
0000
,
0000
0000
0000
0000
,
0000
0000
0000
0000
,
0000
0000
0000
0000
,
0000
0000
0000
0000
,
0000
0000
0000
0000
;
